GloDLS.to - Download Movies, TV, Games and Other Torrents Free RSS 2.0enGloDLS.to - Download Movies, TV, Games and Other Torrents FreeGloDLS.to - Download Movies, TV, Games and Other Torrents Free RSS Feedhttp://glodls.toCopyright GloDLS.to - Download Movies, TV, Games and Other Torrents FreeThu, 24 Aug 2017 05:48:19 +0100 SapphicErotica.17.08.24.Aislin.And.Kira.Thorn.XXX.1080p.MP4-KTR http://glodls.to/torrent.php?id=2733014 http://glodls.to/torrent.php?id=2733014 Thu, 24 Aug 2017 04:47:10 +0100 Adult XXX
{Duration} : 34 min 23 s
{Format} : MPEG-4
{Resolution} : 1920 x 1080 pixels
{Aspect Ratio} : 16:9
{Frame Rate} : 29.970 fps

[b]Thumbnails : -[/b]

[URL=https://www.sizzlingclicks.com/image/UHUnb][IMG]https://www.sizzlingclicks.com/images/2017/08/24/UHUnb.th.jpg[/IMG][/URL]
[b][URL]https://www.sizzlingclicks.com/image/UHUnb[/URL][/b]
[b][URL]https://www.sizzlingclicks.com/image/UHnSC[/URL][/b]
[b][URL]https://www.sizzlingclicks.com/image/UHIW0[/URL][/b]
[b][URL]https://www.sizzlingclicks.com/image/UHh8K[/URL][/b] ]]>
Megan Leavey 2017 DVDRip XviD AC3-iFT http://glodls.to/torrent.php?id=2733012 http://glodls.to/torrent.php?id=2733012 Thu, 24 Aug 2017 04:46:40 +0100 Movies COVER:
http://tinizo.com/upload/small/2017/08/24/599e5a305a0f0.jpg

RELEASED:
9 June 2017

IMDB: http://www.imdb.com/title/tt4899370/



Size: 2257186830 bytes (2.10 GiB), duration: 01:56:37, avg.bitrate: 2581 kb/s
Audio: ac3, 48000 Hz, 5:1, 448 kb/s
Video: mpeg4, yuv420p, 720x304, 23.98 fps(r)




SCREENS:
[url=http://tinizo.com/img-599e5a30812e0.html][img]http://tinizo.com/upload/small/2017/08/24/599e5a30812aa.jpg[/img][/url]

[url]http://tinizo.com/img-599e5a30832bd.html[/url]

[url]http://tinizo.com/img-599e5a30851c0.html[/url]


DOWNLOAD AND ENJOY.

KEEP IT FOR LONG SEEDING TO HELP OTHERS


Thanks to encoder
Movie Share ]]>
SapphicErotica.17.08.24.Aislin.And.Kira.Thorn.XXX.1080p.MP4-KTR[N1C] http://glodls.to/torrent.php?id=2733010 http://glodls.to/torrent.php?id=2733010 Thu, 24 Aug 2017 04:45:10 +0100 Adult XXX SapphicErotica.17.08.24.Aislin.And.Kira.Thorn.XXX.1080p.MP4-KTR


[Format]: MPEG-4
[Duration]: 34mn 23s
[Resolution]: 1 920 x 1 080 pixels
[Display aspect ratio]: 16:9
[Frame rate mode]: Constant
[Frame rate]: 29.970 fps


[color=green][b]#N1C -> To avoid fakes, ALWAYS check that the torrent was added by NO1CARES[/b][/color]




[color=green][b]Help us by donating with Bitcoin: 1Pgwp16gmLHmPzgjJLxZnMw7YeqiUekUoe[/b][/color]

[b]Screens...[/b]
[url]http://HotImage.uk/img-599e599530694.html[/url]
[url]http://HotImage.uk/img-599e599544e76.html[/url]
[url]http://HotImage.uk/img-599e599553998.html[/url]
[url]http://HotImage.uk/img-599e59955fe31.html[/url] ]]>
Megan.Leavey.2017.DVDRip.XviD.AC3-iFT http://glodls.to/torrent.php?id=2733006 http://glodls.to/torrent.php?id=2733006 Thu, 24 Aug 2017 04:41:13 +0100 Movies [color=red][b]
Megan.Leavey.2017.DVDRip.XviD.AC3-iFT

[/b][/color]


IMDb: http://www.imdb.com/title/tt4899370/





[url=https://boltimg.com/image/t52z][img]https://boltimg.com/images/t52z.png[/img][/url]



[color=green][b]
General

(Duration): 1h 56mn
(FileSize): 2.10 GiB



Audio

(Format): AC-3 - Audio Coding 3
(Codec): AC3



Video

(Format): MPEG-4 Visual -
(Media): video/MP4V-ES
(Format): XviD
(Resolution): 720x304 px
(AspectRatio): 2.35:1
(FrameRate): 23.976 fps




[/b][/color]


[url=https://boltimg.com/image/tzTE][img]https://boltimg.com/images/tzTE.png[/img][/url]



[color=purple][b](Click to enlarge)[/b][/color]

[url=https://boltimg.com/image/mes2C][img]https://boltimg.com/images/mes2C.th.jpg[/img][/url] [url=https://boltimg.com/image/meFdG][img]https://boltimg.com/images/meFdG.th.jpg[/img][/url] [url=https://boltimg.com/image/meV5F][img]https://boltimg.com/images/meV5F.th.jpg[/img][/url] [url=https://boltimg.com/image/mei6b][img]https://boltimg.com/images/mei6b.th.jpg[/img][/url] [url=https://boltimg.com/image/mep4N][img]https://boltimg.com/images/mep4N.th.jpg[/img][/url] [url=https://boltimg.com/image/meJl7][img]https://boltimg.com/images/meJl7.th.jpg[/img][/url]

[/center]
]]>
SimplyAnal.17.08.24.Daniella.Margot.And.Rebeca.XXX.1080p.MP4-KTR http://glodls.to/torrent.php?id=2733004 http://glodls.to/torrent.php?id=2733004 Thu, 24 Aug 2017 04:39:51 +0100 Adult XXX
{Duration} : 32 min 30 s
{Format} : MPEG-4
{Resolution} : 1920 x 1080 pixels
{Aspect Ratio} : 16:9
{Frame Rate} : 25.000 fps

[b]Thumbnails : -[/b]

[URL=https://www.sizzlingclicks.com/image/UH32n][IMG]https://www.sizzlingclicks.com/images/2017/08/24/UH32n.th.jpg[/IMG][/URL]
[b][URL]https://www.sizzlingclicks.com/image/UH32n[/URL][/b]
[b][URL]https://www.sizzlingclicks.com/image/UHgEw[/URL][/b]
[b][URL]https://www.sizzlingclicks.com/image/UHqFM[/URL][/b]
[b][URL]https://www.sizzlingclicks.com/image/UH19q[/URL][/b] ]]>
SimplyAnal.17.08.24.Daniella.Margot.And.Rebeca.XXX.1080p.MP4-KTR[N1C] http://glodls.to/torrent.php?id=2733002 http://glodls.to/torrent.php?id=2733002 Thu, 24 Aug 2017 04:39:05 +0100 Adult XXX SimplyAnal.17.08.24.Daniella.Margot.And.Rebeca.XXX.1080p.MP4-KTR


[Format]: MPEG-4
[Duration]: 32mn 30s
[Resolution]: 1 920 x 1 080 pixels
[Display aspect ratio]: 16:9
[Frame rate mode]: Constant
[Frame rate]: 25.000 fps


[color=green][b]#N1C -> To avoid fakes, ALWAYS check that the torrent was added by NO1CARES[/b][/color]




[color=green][b]Help us by donating with Bitcoin: 1Pgwp16gmLHmPzgjJLxZnMw7YeqiUekUoe[/b][/color]

[b]Screens...[/b]
[url]http://HotImage.uk/img-599e58206ca04.html[/url]
[url]http://HotImage.uk/img-599e582081c74.html[/url]
[url]http://HotImage.uk/img-599e582090286.html[/url]
[url]http://HotImage.uk/img-599e5820c4e83.html[/url] ]]>
TeensLikeItBig.17.08.24.Olivia.Nova.Olivias.Wet.Little.Secret.XXX.1080p.MP4-KTR http://glodls.to/torrent.php?id=2732998 http://glodls.to/torrent.php?id=2732998 Thu, 24 Aug 2017 04:36:52 +0100 Adult XXX
{Duration} : 39 min 2 s
{Format} : MPEG-4
{Resolution} : 1920 x 1080 pixels
{Aspect Ratio} : 16:9
{Frame Rate} : 23.976 fps

[b]Thumbnails : -[/b]

[URL=https://www.sizzlingclicks.com/image/Uj2xL][IMG]https://www.sizzlingclicks.com/images/2017/08/24/Uj2xL.th.jpg[/IMG][/URL]
[b][URL]https://www.sizzlingclicks.com/image/Uj2xL[/URL][/b]
[b][URL]https://www.sizzlingclicks.com/image/Uj78r[/URL][/b]
[b][URL]https://www.sizzlingclicks.com/image/UjVZ9[/URL][/b]
[b][URL]https://www.sizzlingclicks.com/image/UH0to[/URL][/b] ]]>
FisterTwister.17.08.24.Luca.Bella.And.Lucia.Denvile.XXX.1080p.MP4-KTR http://glodls.to/torrent.php?id=2732997 http://glodls.to/torrent.php?id=2732997 Thu, 24 Aug 2017 04:36:48 +0100 Adult XXX
{Duration} : 24 min 0 s
{Format} : MPEG-4
{Resolution} : 1920 x 1080 pixels
{Aspect Ratio} : 16:9
{Frame Rate} : 25.000 fps

[b]Thumbnails : -[/b]

[URL=https://www.sizzlingclicks.com/image/UjG57][IMG]https://www.sizzlingclicks.com/images/2017/08/24/UjG57.th.jpg[/IMG][/URL]
[b][URL]https://www.sizzlingclicks.com/image/UjG57[/URL][/b]
[b][URL]https://www.sizzlingclicks.com/image/Ujefd[/URL][/b]
[b][URL]https://www.sizzlingclicks.com/image/Ujsni[/URL][/b]
[b][URL]https://www.sizzlingclicks.com/image/UjyMs[/URL][/b] ]]>
Playboy Poland - March 2014 http://glodls.to/torrent.php?id=2732990 http://glodls.to/torrent.php?id=2732990 Thu, 24 Aug 2017 04:34:13 +0100 Books
[b][url=http://4kw.in/3757.html]PREVIEW 1[/url][/b]

[b][url=http://4kw.in/3758.html]PREVIEW 2[/url][/b]

[b][url=http://4kw.in/3759.html]PREVIEW 3[/url][/b]

[b][url=http://4kw.in/3760.html]PREVIEW 4[/url][/b][/size] ]]>
FisterTwister.17.08.24.Luca.Bella.And.Lucia.Denvile.XXX.1080p.MP4-KTR[N1C] http://glodls.to/torrent.php?id=2732989 http://glodls.to/torrent.php?id=2732989 Thu, 24 Aug 2017 04:34:04 +0100 Adult XXX FisterTwister.17.08.24.Luca.Bella.And.Lucia.Denvile.XXX.1080p.MP4-KTR


[Format]: MPEG-4
[Duration]: 24mn 0s
[Resolution]: 1 920 x 1 080 pixels
[Display aspect ratio]: 16:9
[Frame rate mode]: Constant
[Frame rate]: 25.000 fps


[color=green][b]#N1C -> To avoid fakes, ALWAYS check that the torrent was added by NO1CARES[/b][/color]




[color=green][b]Help us by donating with Bitcoin: 1Pgwp16gmLHmPzgjJLxZnMw7YeqiUekUoe[/b][/color]

[b]Screens...[/b]
[url]http://HotImage.uk/img-599e56f5c4af7.html[/url]
[url]http://HotImage.uk/img-599e56f5d9003.html[/url]
[url]http://HotImage.uk/img-599e56f5e7852.html[/url]
[url]http://HotImage.uk/img-599e56f5f4084.html[/url] ]]>
NOVA.S45E01.Eclipse.Over.America.HDTV.x264-TBD http://glodls.to/torrent.php?id=2732987 http://glodls.to/torrent.php?id=2732987 Thu, 24 Aug 2017 04:33:39 +0100 TV
[url=https://www.sparrowpics.com/image/kbFon][img]https://www.sparrowpics.com/images/2017/07/04/kbFon.png[/img][/url]

[b]Complete name : NOVA.S45E01.Eclipse.Over.America.HDTV.x264-TBD.mkv
Format : Matroska
Format version : Version 2
File size : 307 MiB
Duration : 53 min 2 s
Overall bit rate : 810 kb/s
Encoded date : UTC 2017-08-24 04:21:51
Writing application : mkvmerge v15.0.0 ('Duel with the Devil') 64-bit
Writing library : libebml v1.3.5 + libmatroska v1.4.5

Video
ID : 1
Format : AVC
Format/Info : Advanced Video Codec
Format profile : High@L3.1
Format settings, CABAC : Yes
Format settings, ReFrames : 5 frames
Codec ID : V_MPEG4/ISO/AVC
Duration : 53 min 2 s
Bit rate : 691 kb/s
Width : 720 pixels
Height : 402 pixels
Display aspect ratio : 16:9
Frame rate mode : Constant
Frame rate : 59.940 (60000/1001) FPS
Color space : YUV
Chroma subsampling : 4:2:0
Bit depth : 8 bits
Scan type : Progressive
Bits/(Pixel*Frame) : 0.040
Stream size : 262 MiB (85%)
Writing library : x264 core 152 r2851 ba24899
Encoding settings : cabac=1 / ref=5 / deblock=1:0:0 / analyse=0x3:0x113 / me=umh / subme=8 / psy=1 / psy_rd=1.00:0.00 / mixed_ref=1 / me_range=16 / chroma_me=1 / trellis=2 / 8x8dct=1 / cqm=0 / deadzone=21,11 / fast_pskip=1 / chroma_qp_offset=-2 / threads=13 / lookahead_threads=3 / sliced_threads=0 / nr=0 / decimate=1 / interlaced=0 / bluray_compat=0 / constrained_intra=0 / bframes=5 / b_pyramid=2 / b_adapt=2 / b_bias=0 / direct=3 / weightb=1 / open_gop=0 / weightp=2 / keyint=599 / keyint_min=59 / scenecut=40 / intra_refresh=0 / rc_lookahead=50 / rc=crf / mbtree=1 / crf=21.0 / qcomp=0.60 / qpmin=0 / qpmax=69 / qpstep=4 / ip_ratio=1.40 / aq=1:1.00
Default : Yes
Forced : No
Color range : Limited
Matrix coefficients : BT.709

Audio
ID : 2
Format : AAC
Format/Info : Advanced Audio Codec
Format profile : LC
Codec ID : A_AAC
Duration : 53 min 2 s
Bit rate : 115 kb/s
Channel(s) : 2 channels
Channel positions : Front: L R
Sampling rate : 48.0 kHz
Frame rate : 46.875 FPS (1024 spf)
Compression mode : Lossy
Delay relative to video : 9 ms
Stream size : 43.7 MiB (14%)
Language : English
Default : Yes
Forced : No[/b]

[url=https://www.sparrowpics.com/image/kbJ5y][img]https://www.sparrowpics.com/images/2017/07/04/kbJ5y.png[/img][/url]

[URL=https://tv.sparrowpics.com/image/K7mic][IMG]https://tv.sparrowpics.com/images/2017/08/24/K7mic.th.jpg[/IMG][/URL]

[URL=https://tv.sparrowpics.com/image/K7BNQ][b]Click To View Screenshot[/b][/URL]

[URL=https://tv.sparrowpics.com/image/K7CVi][b]Click To View Screenshot[/b][/URL]

[URL=https://tv.sparrowpics.com/image/K7cdm][b]Click To View Screenshot[/b][/URL][/center] ]]>
TeensLikeItBig.17.08.24.Olivia.Nova.Olivias.Wet.Little.Secret.XXX.1080p.MP4-KTR[N1C] http://glodls.to/torrent.php?id=2732986 http://glodls.to/torrent.php?id=2732986 Thu, 24 Aug 2017 04:33:09 +0100 Adult XXX TeensLikeItBig.17.08.24.Olivia.Nova.Olivias.Wet.Little.Secret.XXX.1080p.MP4-KTR


[Format]: MPEG-4
[Duration]: 39mn 2s
[Resolution]: 1 920 x 1 080 pixels
[Display aspect ratio]: 16:9
[Frame rate mode]: Constant
[Frame rate]: 23.976 fps


[color=green][b]#N1C -> To avoid fakes, ALWAYS check that the torrent was added by NO1CARES[/b][/color]




[color=green][b]Help us by donating with Bitcoin: 1Pgwp16gmLHmPzgjJLxZnMw7YeqiUekUoe[/b][/color]

[b]Screens...[/b]
[url]http://HotImage.uk/img-599e56e0a6308.html[/url]
[url]http://HotImage.uk/img-599e56e0ba7d5.html[/url]
[url]http://HotImage.uk/img-599e56e0c9b9c.html[/url]
[url]http://HotImage.uk/img-599e56e0d6767.html[/url] ]]>
OnlyTeenBlowJobs.17.08.24.Ember.Snow.XXX.1080p.MP4-KTR http://glodls.to/torrent.php?id=2732984 http://glodls.to/torrent.php?id=2732984 Thu, 24 Aug 2017 04:30:47 +0100 Adult XXX
{Duration} : 16 min 36 s
{Format} : MPEG-4
{Resolution} : 1920 x 1080 pixels
{Aspect Ratio} : 16:9
{Frame Rate} : 23.976 fps

[b]Thumbnails : -[/b]

[URL=https://www.sizzlingclicks.com/image/UjwZj][IMG]https://www.sizzlingclicks.com/images/2017/08/24/UjwZj.th.jpg[/IMG][/URL]
[b][URL]https://www.sizzlingclicks.com/image/UjwZj[/URL][/b]
[b][URL]https://www.sizzlingclicks.com/image/UjDt8[/URL][/b]
[b][URL]https://www.sizzlingclicks.com/image/UjJyB[/URL][/b]
[b][URL]https://www.sizzlingclicks.com/image/Uj9EZ[/URL][/b] ]]>
ImmoralLive.17.08.24.Sharon.Lee.XXX.1080p.MP4-KTR http://glodls.to/torrent.php?id=2732982 http://glodls.to/torrent.php?id=2732982 Thu, 24 Aug 2017 04:30:43 +0100 Adult XXX
{Duration} : 48 min 2 s
{Format} : MPEG-4
{Resolution} : 1920 x 1080 pixels
{Aspect Ratio} : 16:9
{Frame Rate} : 29.970 fps

[b]Thumbnails : -[/b]

[URL=https://www.sizzlingclicks.com/image/UjQUJ][IMG]https://www.sizzlingclicks.com/images/2017/08/24/UjQUJ.th.jpg[/IMG][/URL]
[b][URL]https://www.sizzlingclicks.com/image/UjQUJ[/URL][/b]
[b][URL]https://www.sizzlingclicks.com/image/UjbMY[/URL][/b]
[b][URL]https://www.sizzlingclicks.com/image/UjxxA[/URL][/b]
[b][URL]https://www.sizzlingclicks.com/image/Ujv3W[/URL][/b] ]]>
OnlyTeenBlowJobs.17.08.24.Ember.Snow.XXX.1080p.MP4-KTR[N1C] http://glodls.to/torrent.php?id=2732968 http://glodls.to/torrent.php?id=2732968 Thu, 24 Aug 2017 04:26:11 +0100 Adult XXX OnlyTeenBlowJobs.17.08.24.Ember.Snow.XXX.1080p.MP4-KTR


[Format]: MPEG-4
[Duration]: 16mn 36s
[Resolution]: 1 920 x 1 080 pixels
[Display aspect ratio]: 16:9
[Frame rate mode]: Constant
[Frame rate]: 23.976 fps


[color=green][b]#N1C -> To avoid fakes, ALWAYS check that the torrent was added by NO1CARES[/b][/color]




[color=green][b]Help us by donating with Bitcoin: 1Pgwp16gmLHmPzgjJLxZnMw7YeqiUekUoe[/b][/color]

[b]Screens...[/b]
[url]http://HotImage.uk/img-599e54fce516c.html[/url]
[url]http://HotImage.uk/img-599e54fd05ef0.html[/url]
[url]http://HotImage.uk/img-599e54fd14962.html[/url]
[url]http://HotImage.uk/img-599e54fd20c3f.html[/url] ]]>
MommyBlowsBest.17.08.23.Mona.Wales.XXX.1080p.MP4-KTR http://glodls.to/torrent.php?id=2732967 http://glodls.to/torrent.php?id=2732967 Thu, 24 Aug 2017 04:26:07 +0100 Adult XXX
{Duration} : 19 min 50 s
{Format} : MPEG-4
{Resolution} : 1920 x 1080 pixels
{Aspect Ratio} : 16:9
{Frame Rate} : 23.976 fps

[b]Thumbnails : -[/b]

[URL=https://www.sizzlingclicks.com/image/UjTyE][IMG]https://www.sizzlingclicks.com/images/2017/08/24/UjTyE.th.jpg[/IMG][/URL]
[b][URL]https://www.sizzlingclicks.com/image/UjTyE[/URL][/b]
[b][URL]https://www.sizzlingclicks.com/image/Ujtze[/URL][/b]
[b][URL]https://www.sizzlingclicks.com/image/UjK55[/URL][/b]
[b][URL]https://www.sizzlingclicks.com/image/UjNfX[/URL][/b] ]]>
IKnowThatGirl.17.08.24.Evelin.Stone.Candy.Lingerie.Chase.XXX.1080p.MP4-KTR http://glodls.to/torrent.php?id=2732966 http://glodls.to/torrent.php?id=2732966 Thu, 24 Aug 2017 04:26:04 +0100 Adult XXX
{Duration} : 31 min 34 s
{Format} : MPEG-4
{Resolution} : 1920 x 1080 pixels
{Aspect Ratio} : 16:9
{Frame Rate} : 23.976 fps

[b]Thumbnails : -[/b]

[URL=https://www.sizzlingclicks.com/image/Uj5bK][IMG]https://www.sizzlingclicks.com/images/2017/08/24/Uj5bK.th.jpg[/IMG][/URL]
[b][URL]https://www.sizzlingclicks.com/image/Uj5bK[/URL][/b]
[b][URL]https://www.sizzlingclicks.com/image/UjL3u[/URL][/b]
[b][URL]https://www.sizzlingclicks.com/image/UjPO2[/URL][/b]
[b][URL]https://www.sizzlingclicks.com/image/UjRdR[/URL][/b] ]]>
ImmoralLive.17.08.24.Sharon.Lee.XXX.1080p.MP4-KTR[N1C] http://glodls.to/torrent.php?id=2732961 http://glodls.to/torrent.php?id=2732961 Thu, 24 Aug 2017 04:25:35 +0100 Adult XXX ImmoralLive.17.08.24.Sharon.Lee.XXX.1080p.MP4-KTR


[Format]: MPEG-4
[Duration]: 48mn 2s
[Resolution]: 1 920 x 1 080 pixels
[Display aspect ratio]: 16:9
[Frame rate mode]: Constant
[Frame rate]: 29.970 fps


[color=green][b]#N1C -> To avoid fakes, ALWAYS check that the torrent was added by NO1CARES[/b][/color]




[color=green][b]Help us by donating with Bitcoin: 1Pgwp16gmLHmPzgjJLxZnMw7YeqiUekUoe[/b][/color]

[b]Screens...[/b]
[url]http://HotImage.uk/img-599e54ecbef3e.html[/url]
[url]http://HotImage.uk/img-599e54ecd2c89.html[/url]
[url]http://HotImage.uk/img-599e54ece0e7d.html[/url]
[url]http://HotImage.uk/img-599e54ececbfc.html[/url] ]]>
MommyBlowsBest.17.08.23.Mona.Wales.XXX.1080p.MP4-KTR[N1C] http://glodls.to/torrent.php?id=2732960 http://glodls.to/torrent.php?id=2732960 Thu, 24 Aug 2017 04:25:12 +0100 Adult XXX MommyBlowsBest.17.08.23.Mona.Wales.XXX.1080p.MP4-KTR


[Format]: MPEG-4
[Duration]: 19mn 50s
[Resolution]: 1 920 x 1 080 pixels
[Display aspect ratio]: 16:9
[Frame rate mode]: Constant
[Frame rate]: 23.976 fps


[color=green][b]#N1C -> To avoid fakes, ALWAYS check that the torrent was added by NO1CARES[/b][/color]




[color=green][b]Help us by donating with Bitcoin: 1Pgwp16gmLHmPzgjJLxZnMw7YeqiUekUoe[/b][/color]

[b]Screens...[/b]
[url]http://HotImage.uk/img-599e54db6a82a.html[/url]
[url]http://HotImage.uk/img-599e54dbb10e4.html[/url]
[url]http://HotImage.uk/img-599e54dbbc4a9.html[/url]
[url]http://HotImage.uk/img-599e54dbc762c.html[/url] ]]>
Internet Download Manager 62 8 Build 17[SOFTWAREKING] http://glodls.to/torrent.php?id=2732959 http://glodls.to/torrent.php?id=2732959 Thu, 24 Aug 2017 04:25:05 +0100 Apps [center][url=https://lookimg.com/image/AVime][size=3][img]https://lookimg.com/images/2017/08/24/AVime.jpg[/img][/size][/url][/center]
[left][b][color=#33cc33][size=2]Internet Download Manager (IDM) is a reliabe and very useful tool with safe multipart downloading technology to accelerate from internet your downloads such a video, music, games, documents and other important stuff for you files. IDM Crack has a smart download logic accelerator and increases download speeds by up to 5 times, resumes and schedules downloads. Comprehensive error recovery and resume capability will restart broken or interrupted downloads due to lost connections, network problems, computer shutdowns, or unexpected power outages. Simple graphic user interface makes Internet Download Manager Full Version user friendly and easy to use. Unlike other download managers and accelerators, IDM 6.28 Crack segments downloaded files dynamically during download process and reuses available connections without additional connect and login stages to achieve best acceleration performance.[/size][/color][/b][/left]


[center][color=#ff3333][b][size=4]Features:[/size][/b][/color][/center]
[center][size=3][b][color=#cc33cc]• All popular browsers and applications are supported![/color][/b][/size][/center]
[center][size=3][b][color=#cc33cc]• Easy downloading with one click.[/color][/b][/size][/center]
[center][size=3][b][color=#cc33cc]• Download Speed Acceleration.[/color][/b][/size][/center]
[center][size=3][b][color=#cc33cc]• Download Resume.[/color][/b][/size][/center]
[center][size=3][b][color=#cc33cc]• YouTube grabber.[/color][/b][/size][/center]
[center][size=3][b][color=#cc33cc]• Simple installation wizard.[/color][/b][/size][/center]
[center][size=3][b][color=#cc33cc]• Drag and Drop.[/color][/b][/size][/center]
[center][size=3][b][color=#cc33cc]• Automatic Antivirus checking.[/color][/b][/size][/center]
[center][size=3][b][color=#cc33cc]• Advanced Browser Integration.[/color][/b][/size][/center]
[center][size=3][b][color=#cc33cc]• Built-in Scheduler.[/color][/b][/size][/center]
[center][size=3][b][color=#cc33cc]• IDM includes web site spider and grabber.[/color][/b][/size][/center]
[center][size=3][b][color=#cc33cc]• IDM supports many types of proxy servers.[/color][/b][/size][/center]
[center][size=3][b][color=#cc33cc]• IDM supports main authentication protocols:[/color][/b][/size][/center]
[center][size=3][b][color=#cc33cc]• Download All feature.[/color][/b][/size][/center]
[center][size=3][b][color=#cc33cc]• Customizable Interface.[/color][/b][/size][/center]
[center][size=3][b][color=#cc33cc]• Download Categories.[/color][/b][/size][/center]
[center][size=3][b][color=#cc33cc]• Download limits.[/color][/b][/size][/center]
[center][size=3][b][color=#cc33cc]• IDM is multilingual.[/color][/b][/size][/center]

[center][b][color=#ff9933][size=4]What’s new in version IDM 6.28 Build 17[/size][/color][/b][/center]
[center][b][color=#ff9933][size=4](Released: Aug 05, 2017)[/size][/color][/b][/center]
[center][size=3][b][color=#3333cc]• Added compatibility with Windows 10 Preview build 16257[/color][/b][/size][/center]
[center][size=3][b][color=#3333cc]• Fixed bugs[/color][/b][/size][/center]


[center][url=https://lookimg.com/image/AVMIA][img]https://lookimg.com/images/2017/08/24/AVMIA.png[/img][/url][/center]
[center][url=https://lookimg.com/image/AVeOR][img]https://lookimg.com/images/2017/08/24/AVeOR.md.png[/img][/url][/center]
]]>
Ghosts.of.Shepherdstown.S02E04.Im.Your.Biggest.Fan.HDTV.x264-CRiMSON[ettv] http://glodls.to/torrent.php?id=2732956 http://glodls.to/torrent.php?id=2732956 Thu, 24 Aug 2017 04:24:06 +0100 TV Et TV Shows


Ghosts.of.Shepherdstown.S02E04.Im.Your.Biggest.Fan.HDTV.x264-CRiMSON


[Format]: Matroska
[Duration]: 42mn 20s
[Resolution]: 720 x 404 pixels
[Display aspect ratio]: 16:9
[Frame rate mode]: Constant
[Frame rate]: 23.976 fps


[color=green][b]#ettv -> To avoid fakes, ALWAYS check that the torrent was added by ettv[/b][/color]




[color=green][b]To keep us going Support us by donating Bitcoin: 3MDamEmgKepqagtQe9eEdQ3NCrWEWjhoL5[/b][/color]

[b]Screens...[/b]
[url=https://extraimage.net/image/TjKh][img]https://extraimage.net/images/2017/08/24/c66fa09a59aa48ee8bcc6e53a1552042.th.jpg[/img][/url] ]]>
Argo 2012 BluRay Rip 720p Dual Audio Hindi English GOPI SAHI SilverRG http://glodls.to/torrent.php?id=2732953 http://glodls.to/torrent.php?id=2732953 Thu, 24 Aug 2017 04:23:34 +0100 Movies ID : 1
Format : AVC
Format/Info : Advanced Video Codec
Format profile : High@L4.0
Format settings, CABAC : Yes
Format settings, ReFrames : 7 frames
Codec ID : V_MPEG4/ISO/AVC
Duration : 2h 0mn
Nominal bit rate : 773 Kbps
Width : 1 280 pixels
Height : 528 pixels
Display aspect ratio : 2.40:1
Frame rate mode : Constant
Frame rate : 23.976 fps
Color space : YUV
Chroma subsampling : 4:2:0
Bit depth : 8 bits
Scan type : Progressive
Bits/(Pixel*Frame) : 0.048
Title : GOPI SAHI
Writing library : x264 core 129 r2230 1cffe9f
Language : English
Default : Yes
Forced : No

Audio #1
ID : 3
Format : AAC
Format/Info : Advanced Audio Codec
Format profile : LC
Codec ID : A_AAC
Duration : 2h 0mn
Channel(s) : 2 channels
Channel positions : Front: L R
Sampling rate : 44.1 KHz
Compression mode : Lossy
Title : GOPI SAHI
Language : English
Default : Yes
Forced : No

Audio #2
ID : 4
Format : AAC
Format/Info : Advanced Audio Codec
Format profile : LC
Codec ID : A_AAC
Duration : 2h 0mn
Channel(s) : 2 channels
Channel positions : Front: L R
Sampling rate : 44.1 KHz
Compression mode : Lossy
Title : GOPI SAHI
Language : Hindi
Default : No
Forced : No
[img]http://i.imgur.com/2pR4UMD.jpg[/img]
[img]http://i.imgur.com/CaFQDVl.jpg[/img]
[img]http://i.imgur.com/Mrwr3Xo.jpg[/img]
[img]http://i.imgur.com/lpzOMEq.jpg[/img]
[img]http://i.imgur.com/fvdzZ1o.jpg[/img]
[img]http://i.imgur.com/hl7j15G.jpg[/img]
[img]http://i.imgur.com/XbE3A4O.jpg[/img] ]]>
Black.Ink.Crew.Chicago.S03E06.This.One.Time.at.Van.Camp.HDTV.x264-CRiMSON[ettv] http://glodls.to/torrent.php?id=2732952 http://glodls.to/torrent.php?id=2732952 Thu, 24 Aug 2017 04:23:21 +0100 TV Et TV Shows


Black.Ink.Crew.Chicago.S03E06.This.One.Time.at.Van.Camp.HDTV.x264-CRiMSON


[Format]: Matroska
[Duration]: 40mn 46s
[Resolution]: 720 x 404 pixels
[Display aspect ratio]: 16:9
[Frame rate mode]: Constant
[Frame rate]: 23.976 fps


[color=green][b]#ettv -> To avoid fakes, ALWAYS check that the torrent was added by ettv[/b][/color]




[color=green][b]To keep us going Support us by donating Bitcoin: 3MDamEmgKepqagtQe9eEdQ3NCrWEWjhoL5[/b][/color]

[b]Screens...[/b]
[url=https://extraimage.net/image/TjKd][img]https://extraimage.net/images/2017/08/24/1495e510ff2f1a16eb7e9b180ced395c.th.jpg[/img][/url] ]]>
All.Eyez.on.Me.2017.720p.BRRip.x264.AC3-iFT http://glodls.to/torrent.php?id=2732951 http://glodls.to/torrent.php?id=2732951 Thu, 24 Aug 2017 04:23:02 +0100 Movies
[b]ImDb: [URL]http://www.imdb.com/title/tt1666185[/URL][/b]

[url=https://www.sparrowpics.com/image/kbFon][img]https://www.sparrowpics.com/images/2017/07/04/kbFon.png[/img][/url]

[b]Complete name : All.Eyez.on.Me.2017.720p.BRRip.x264.AC3-iFT.mkv
Format : Matroska
Format version : Version 4 / Version 2
File size : 4.16 GiB
Duration : 2 h 19 min
Overall bit rate : 4 264 kb/s
Movie name : All.Eyez.on.Me.2017.720p.BRRip.x264.AC3-iFT
Encoded date : UTC 2017-08-24 04:02:37
Writing application : mkvmerge v8.9.0 ('Father Daughter') 64bit
Writing library : libebml v1.3.3 + libmatroska v1.4.4

Video
ID : 1
Format : AVC
Format/Info : Advanced Video Codec
Format profile : High@L4.1
Format settings, CABAC : Yes
Format settings, ReFrames : 12 frames
Codec ID : V_MPEG4/ISO/AVC
Duration : 2 h 19 min
Bit rate : 3 850 kb/s
Width : 1 280 pixels
Height : 536 pixels
Display aspect ratio : 2.40:1
Frame rate mode : Constant
Frame rate : 23.976 (24000/1001) FPS
Color space : YUV
Chroma subsampling : 4:2:0
Bit depth : 8 bits
Scan type : Progressive
Bits/(Pixel*Frame) : 0.234
Stream size : 3.72 GiB (89%)
Title : All.Eyez.on.Me.2017.720p.BRRip.x264.AC3-iFT
Writing library : x264 core 142 r2431+42 c69a006 tMod [8-bit@all X86_64]
Encoding settings : cabac=1 / ref=12 / deblock=1:-3:-3 / analyse=0x3:0x133 / me=umh / subme=8 / psy=1 / fade_compensate=0.00 / psy_rd=1.05:0.15 / mixed_ref=1 / me_range=48 / chroma_me=1 / trellis=2 / 8x8dct=1 / cqm=0 / deadzone=21,11 / fast_pskip=1 / chroma_qp_offset=-3 / threads=16 / lookahead_threads=4 / sliced_threads=0 / nr=0 / decimate=0 / interlaced=0 / bluray_compat=0 / constrained_intra=0 / fgo=0 / bframes=6 / b_pyramid=2 / b_adapt=2 / b_bias=0 / direct=3 / weightb=1 / open_gop=0 / weightp=2 / keyint=240 / keyint_min=23 / scenecut=40 / intra_refresh=0 / rc_lookahead=60 / rc=abr / mbtree=1 / bitrate=3850 / ratetol=1.0 / qcomp=0.70 / qpmin=0:0:0 / qpmax=69:69:69 / qpstep=4 / vbv_maxrate=50000 / vbv_bufsize=62500 / nal_hrd=none / filler=0 / ip_ratio=1.30 / aq=1:0.80 / aq-sensitivity=10.00 / aq-factor=1.00:1.00:1.00 / aq2=0 / aq3=0
Default : Yes
Forced : No
Color range : Limited
Color primaries : BT.709
Transfer characteristics : BT.709
Matrix coefficients : BT.709

Audio
ID : 2
Format : AC-3
Format/Info : Audio Coding 3
Format settings, Endianness : Big
Codec ID : A_AC3
Duration : 2 h 19 min
Bit rate mode : Constant
Bit rate : 448 kb/s
Channel(s) : 6 channels
Channel positions : Front: L C R, Side: L R, LFE
Sampling rate : 48.0 kHz
Frame rate : 31.250 FPS (1536 spf)
Bit depth : 16 bits
Compression mode : Lossy
Stream size : 447 MiB (11%)
Language : English
Service kind : Complete Main
Default : Yes
Forced : No

Menu
00:00:00.000 : en:00:00:00.000
00:08:11.241 : en:00:08:11.241
00:18:13.259 : en:00:18:13.259
00:26:49.900 : en:00:26:49.900
00:35:10.692 : en:00:35:10.692
00:44:50.104 : en:00:44:50.104
00:52:41.533 : en:00:52:41.533
01:01:27.934 : en:01:01:27.934
01:09:20.490 : en:01:09:20.490
01:19:04.657 : en:01:19:04.657
01:27:41.548 : en:01:27:41.548
01:35:07.702 : en:01:35:07.702
01:44:51.952 : en:01:44:51.952
01:52:30.994 : en:01:52:30.994
02:03:28.401 : en:02:03:28.401
02:14:29.061 : en:02:14:29.061[/b]

[url=https://www.sparrowpics.com/image/kbJ5y][img]https://www.sparrowpics.com/images/2017/07/04/kbJ5y.png[/img][/url]

[URL=https://www.sparrowpics.com/image/QOqvN][IMG]https://www.sparrowpics.com/images/2017/08/24/QOqvN.th.jpg[/IMG][/URL]

[URL=https://www.sparrowpics.com/image/QbF3Y][b]Click To View Screenshot[/b][/URL]

[URL=https://www.sparrowpics.com/image/QbJX9][b]Click To View Screenshot[/b][/URL]

[URL=https://www.sparrowpics.com/image/QbLjb][b]Click To View Screenshot[/b][/URL][/center] ]]>
IKnowThatGirl.17.08.24.Evelin.Stone.Candy.Lingerie.Chase.XXX.1080p.MP4-KTR[N1C] http://glodls.to/torrent.php?id=2732946 http://glodls.to/torrent.php?id=2732946 Thu, 24 Aug 2017 04:22:14 +0100 Adult XXX IKnowThatGirl.17.08.24.Evelin.Stone.Candy.Lingerie.Chase.XXX.1080p.MP4-KTR


[Format]: MPEG-4
[Duration]: 31mn 34s
[Resolution]: 1 920 x 1 080 pixels
[Display aspect ratio]: 16:9
[Frame rate mode]: Constant
[Frame rate]: 23.976 fps


[color=green][b]#N1C -> To avoid fakes, ALWAYS check that the torrent was added by NO1CARES[/b][/color]




[color=green][b]Help us by donating with Bitcoin: 1Pgwp16gmLHmPzgjJLxZnMw7YeqiUekUoe[/b][/color]

[b]Screens...[/b]
[url]http://HotImage.uk/img-599e541c4daf3.html[/url]
[url]http://HotImage.uk/img-599e541c62a3e.html[/url]
[url]http://HotImage.uk/img-599e541c7123e.html[/url]
[url]http://HotImage.uk/img-599e541c7d8e9.html[/url] ]]>
GirlsWay.17.08.24.Adriana.Chechik.Penny.Pax.And.Georgia.Jones.Lady.Boss.Orientation.XXX.1080p.MP4-KTR[N1C] http://glodls.to/torrent.php?id=2732942 http://glodls.to/torrent.php?id=2732942 Thu, 24 Aug 2017 04:21:23 +0100 Adult XXX GirlsWay.17.08.24.Adriana.Chechik.Penny.Pax.And.Georgia.Jones.Lady.Boss.Orientation.XXX.1080p.MP4-KTR


[Format]: MPEG-4
[Duration]: 47mn 34s
[Resolution]: 1 920 x 1 080 pixels
[Display aspect ratio]: 16:9
[Frame rate mode]: Constant
[Frame rate]: 23.976 fps


[color=green][b]#N1C -> To avoid fakes, ALWAYS check that the torrent was added by NO1CARES[/b][/color]




[color=green][b]Help us by donating with Bitcoin: 1Pgwp16gmLHmPzgjJLxZnMw7YeqiUekUoe[/b][/color]

[b]Screens...[/b]
[url]http://HotImage.uk/img-599e53fcdab9c.html[/url]
[url]http://HotImage.uk/img-599e53fcef15e.html[/url]
[url]http://HotImage.uk/img-599e53fd09879.html[/url]
[url]http://HotImage.uk/img-599e53fd15ca3.html[/url] ]]>
GirlsWay.17.08.24.Adriana.Chechik.Penny.Pax.And.Georgia.Jones.Lady.Boss.Orientation.XXX.1080p.MP4-KTR http://glodls.to/torrent.php?id=2732941 http://glodls.to/torrent.php?id=2732941 Thu, 24 Aug 2017 04:21:03 +0100 Adult XXX
{Duration} : 47 min 34 s
{Format} : MPEG-4
{Resolution} : 1920 x 1080 pixels
{Aspect Ratio} : 16:9
{Frame Rate} : 23.976 fps

[b]Thumbnails : -[/b]

[URL=https://www.sizzlingclicks.com/image/UjS5q][IMG]https://www.sizzlingclicks.com/images/2017/08/24/UjS5q.th.jpg[/IMG][/URL]
[b][URL]https://www.sizzlingclicks.com/image/UjS5q[/URL][/b]
[b][URL]https://www.sizzlingclicks.com/image/UjYJb[/URL][/b]
[b][URL]https://www.sizzlingclicks.com/image/UjoUC[/URL][/b]
[b][URL]https://www.sizzlingclicks.com/image/UjkM0[/URL][/b] ]]>
BigWetButts.17.08.24.Bridgette.B.Bubbliest.Butt.XXX.1080p.MP4-KTR http://glodls.to/torrent.php?id=2732932 http://glodls.to/torrent.php?id=2732932 Thu, 24 Aug 2017 04:18:19 +0100 Adult XXX
{Duration} : 33 min 30 s
{Format} : MPEG-4
{Resolution} : 1920 x 1080 pixels
{Aspect Ratio} : 16:9
{Frame Rate} : 23.976 fps

[b]Thumbnails : -[/b]

[URL=https://www.sizzlingclicks.com/image/UjCOo][IMG]https://www.sizzlingclicks.com/images/2017/08/24/UjCOo.th.jpg[/IMG][/URL]
[b][URL]https://www.sizzlingclicks.com/image/UjCOo[/URL][/b]
[b][URL]https://www.sizzlingclicks.com/image/Ujcdn[/URL][/b]
[b][URL]https://www.sizzlingclicks.com/image/Ujjsw[/URL][/b]
[b][URL]https://www.sizzlingclicks.com/image/UjMzM[/URL][/b] ]]>
BurningAngel.17.08.24.Joanna.Angel.And.Mia.Malkova.XXX.1080p.MP4-KTR[N1C] http://glodls.to/torrent.php?id=2732931 http://glodls.to/torrent.php?id=2732931 Thu, 24 Aug 2017 04:17:43 +0100 Adult XXX BurningAngel.17.08.24.Joanna.Angel.And.Mia.Malkova.XXX.1080p.MP4-KTR


[Format]: MPEG-4
[Duration]: 25mn 21s
[Resolution]: 1 920 x 1 080 pixels
[Display aspect ratio]: 16:9
[Frame rate mode]: Constant
[Frame rate]: 23.976 fps


[color=green][b]#N1C -> To avoid fakes, ALWAYS check that the torrent was added by NO1CARES[/b][/color]




[color=green][b]Help us by donating with Bitcoin: 1Pgwp16gmLHmPzgjJLxZnMw7YeqiUekUoe[/b][/color]

[b]Screens...[/b]
[url]http://HotImage.uk/img-599e53208fecd.html[/url]
[url]http://HotImage.uk/img-599e5320a2b81.html[/url]
[url]http://HotImage.uk/img-599e5320b64fa.html[/url]
[url]http://HotImage.uk/img-599e5320c4c83.html[/url] ]]>
BigWetButts.17.08.24.Bridgette.B.Bubbliest.Butt.XXX.1080p.MP4-KTR[N1C] http://glodls.to/torrent.php?id=2732930 http://glodls.to/torrent.php?id=2732930 Thu, 24 Aug 2017 04:17:12 +0100 Adult XXX BigWetButts.17.08.24.Bridgette.B.Bubbliest.Butt.XXX.1080p.MP4-KTR


[Format]: MPEG-4
[Duration]: 33mn 30s
[Resolution]: 1 920 x 1 080 pixels
[Display aspect ratio]: 16:9
[Frame rate mode]: Constant
[Frame rate]: 23.976 fps


[color=green][b]#N1C -> To avoid fakes, ALWAYS check that the torrent was added by NO1CARES[/b][/color]




[color=green][b]Help us by donating with Bitcoin: 1Pgwp16gmLHmPzgjJLxZnMw7YeqiUekUoe[/b][/color]

[b]Screens...[/b]
[url]http://HotImage.uk/img-599e530622c02.html[/url]
[url]http://HotImage.uk/img-599e530637b3f.html[/url]
[url]http://HotImage.uk/img-599e5306469f6.html[/url]
[url]http://HotImage.uk/img-599e530653a36.html[/url] ]]>
NOVA.S45E01.Eclipse.Over.America.720p.HDTV.x264-TBD http://glodls.to/torrent.php?id=2732929 http://glodls.to/torrent.php?id=2732929 Thu, 24 Aug 2017 04:17:03 +0100 TV
[url=https://www.sparrowpics.com/image/kbFon][img]https://www.sparrowpics.com/images/2017/07/04/kbFon.png[/img][/url]

[b]Complete name : NOVA.S45E01.Eclipse.Over.America.720p.HDTV.x264-TBD.mkv
Format : Matroska
Format version : Version 2
File size : 1.03 GiB
Duration : 53 min 2 s
Overall bit rate : 2 784 kb/s
Encoded date : UTC 2017-08-24 03:44:36
Writing application : mkvmerge v15.0.0 ('Duel with the Devil') 64-bit
Writing library : libebml v1.3.5 + libmatroska v1.4.5

Video
ID : 1
Format : AVC
Format/Info : Advanced Video Codec
Format profile : High@L4.1
Format settings, CABAC : Yes
Format settings, ReFrames : 5 frames
Codec ID : V_MPEG4/ISO/AVC
Duration : 53 min 2 s
Bit rate : 2 332 kb/s
Width : 1 280 pixels
Height : 716 pixels
Display aspect ratio : 16:9
Frame rate mode : Constant
Frame rate : 59.940 (60000/1001) FPS
Color space : YUV
Chroma subsampling : 4:2:0
Bit depth : 8 bits
Scan type : Progressive
Bits/(Pixel*Frame) : 0.042
Stream size : 885 MiB (84%)
Writing library : x264 core 152 r2851 ba24899
Encoding settings : cabac=1 / ref=5 / deblock=1:0:0 / analyse=0x3:0x113 / me=umh / subme=8 / psy=1 / psy_rd=1.00:0.00 / mixed_ref=1 / me_range=16 / chroma_me=1 / trellis=2 / 8x8dct=1 / cqm=0 / deadzone=21,11 / fast_pskip=1 / chroma_qp_offset=-2 / threads=18 / lookahead_threads=4 / sliced_threads=0 / nr=0 / decimate=1 / interlaced=0 / bluray_compat=0 / constrained_intra=0 / bframes=5 / b_pyramid=2 / b_adapt=2 / b_bias=0 / direct=3 / weightb=1 / open_gop=0 / weightp=2 / keyint=599 / keyint_min=59 / scenecut=40 / intra_refresh=0 / rc_lookahead=50 / rc=crf / mbtree=1 / crf=20.0 / qcomp=0.60 / qpmin=0 / qpmax=69 / qpstep=4 / ip_ratio=1.40 / aq=1:1.00
Default : Yes
Forced : No

Audio
ID : 2
Format : AC-3
Format/Info : Audio Coding 3
Format settings, Endianness : Big
Codec ID : A_AC3
Duration : 53 min 2 s
Bit rate mode : Constant
Bit rate : 448 kb/s
Channel(s) : 6 channels
Channel positions : Front: L C R, Side: L R, LFE
Sampling rate : 48.0 kHz
Frame rate : 31.250 FPS (1536 spf)
Bit depth : 16 bits
Compression mode : Lossy
Stream size : 170 MiB (16%)
Language : English
Service kind : Complete Main
Default : Yes
Forced : No[/b]

[url=https://www.sparrowpics.com/image/kbJ5y][img]https://www.sparrowpics.com/images/2017/07/04/kbJ5y.png[/img][/url]

[URL=https://tv.sparrowpics.com/image/K7LKX][IMG]https://tv.sparrowpics.com/images/2017/08/24/K7LKX.th.jpg[/IMG][/URL]

[URL=https://tv.sparrowpics.com/image/K7spU][b]Click To View Screenshot[/b][/URL]

[URL=https://tv.sparrowpics.com/image/K7108][b]Click To View Screenshot[/b][/URL]

[URL=https://tv.sparrowpics.com/image/K723O][b]Click To View Screenshot[/b][/URL][/center] ]]>
BurningAngel.17.08.24.Joanna.Angel.And.Mia.Malkova.XXX.1080p.MP4-KTR http://glodls.to/torrent.php?id=2732921 http://glodls.to/torrent.php?id=2732921 Thu, 24 Aug 2017 04:13:46 +0100 Adult XXX
{Duration} : 25 min 21 s
{Format} : MPEG-4
{Resolution} : 1920 x 1080 pixels
{Aspect Ratio} : 16:9
{Frame Rate} : 23.976 fps

[b]Thumbnails : -[/b]

[URL=https://www.sizzlingclicks.com/image/UjpAs][IMG]https://www.sizzlingclicks.com/images/2017/08/24/UjpAs.th.jpg[/IMG][/URL]
[b][URL]https://www.sizzlingclicks.com/image/UjpAs[/URL][/b]
[b][URL]https://www.sizzlingclicks.com/image/UjuHL[/URL][/b]
[b][URL]https://www.sizzlingclicks.com/image/UjObr[/URL][/b]
[b][URL]https://www.sizzlingclicks.com/image/Uj609[/URL][/b] ]]>
BoldlyGirls.17.08.23.Diamond.Kitty.And.Valerie.Kay.REMASTERED.XXX.1080p.MP4-KTR[N1C] http://glodls.to/torrent.php?id=2732919 http://glodls.to/torrent.php?id=2732919 Thu, 24 Aug 2017 04:13:19 +0100 Adult XXX BoldlyGirls.17.08.23.Diamond.Kitty.And.Valerie.Kay.REMASTERED.XXX.1080p.MP4-KTR


[Format]: MPEG-4
[Duration]: 47mn 58s
[Resolution]: 1 920 x 1 080 pixels
[Display aspect ratio]: 16:9
[Frame rate mode]: Constant
[Frame rate]: 25.000 fps


[color=green][b]#N1C -> To avoid fakes, ALWAYS check that the torrent was added by NO1CARES[/b][/color]




[color=green][b]Help us by donating with Bitcoin: 1Pgwp16gmLHmPzgjJLxZnMw7YeqiUekUoe[/b][/color]

[b]Screens...[/b]
[url]http://HotImage.uk/img-599e5235c1348.html[/url]
[url]http://HotImage.uk/img-599e5235cd6c8.html[/url]
[url]http://HotImage.uk/img-599e5235d7fa7.html[/url]
[url]http://HotImage.uk/img-599e5235e2730.html[/url] ]]>
BoldlyGirls.17.08.23.Diamond.Kitty.And.Valerie.Kay.REMASTERED.XXX.1080p.MP4-KTR http://glodls.to/torrent.php?id=2732914 http://glodls.to/torrent.php?id=2732914 Thu, 24 Aug 2017 04:11:38 +0100 Adult XXX
{Duration} : 47 min 58 s
{Format} : MPEG-4
{Resolution} : 1920 x 1080 pixels
{Aspect Ratio} : 16:9
{Frame Rate} : 25.000 fps

[b]Thumbnails : -[/b]

[URL=https://www.sizzlingclicks.com/image/UjhsZ][IMG]https://www.sizzlingclicks.com/images/2017/08/24/UjhsZ.th.jpg[/IMG][/URL]
[b][URL]https://www.sizzlingclicks.com/image/UjhsZ[/URL][/b]
[b][URL]https://www.sizzlingclicks.com/image/Ujzr7[/URL][/b]
[b][URL]https://www.sizzlingclicks.com/image/UjEkd[/URL][/b]
[b][URL]https://www.sizzlingclicks.com/image/UjaJi[/URL][/b] ]]>
Killergram.17.08.23.Julia.De.Lucia.Swinging.Couples.XXX.720p.MP4-KTR[N1C] http://glodls.to/torrent.php?id=2732908 http://glodls.to/torrent.php?id=2732908 Thu, 24 Aug 2017 04:09:39 +0100 Adult XXX Killergram.17.08.23.Julia.De.Lucia.Swinging.Couples.XXX.720p.MP4-KTR


[Format]: MPEG-4
[Duration]: 24mn 18s
[Resolution]: 1 280 x 720 pixels
[Display aspect ratio]: 16:9
[Frame rate mode]: Constant
[Frame rate]: 25.000 fps


[color=green][b]#N1C -> To avoid fakes, ALWAYS check that the torrent was added by NO1CARES[/b][/color]




[color=green][b]Help us by donating with Bitcoin: 1Pgwp16gmLHmPzgjJLxZnMw7YeqiUekUoe[/b][/color]

[b]Screens...[/b]
[url]http://HotImage.uk/img-599e5124d46be.html[/url]
[url]http://HotImage.uk/img-599e5124e0321.html[/url]
[url]http://HotImage.uk/img-599e5124e95ac.html[/url]
[url]http://HotImage.uk/img-599e5124f17e4.html[/url] ]]>
Game of Thrones TV Series Wallpapers Set-26 http://glodls.to/torrent.php?id=2732907 http://glodls.to/torrent.php?id=2732907 Thu, 24 Aug 2017 04:09:36 +0100 Pictures
[b][url=http://4kw.in/TV-Series/Daenerys-Targaryen-Game-of-Thrones-8K.html]PREVIEW 1[/url][/b]

[b][url=http://4kw.in/TV-Series/Daenerys-Targaryen-Dragon-Queen-Game-of-Thrones-Wallpaper-8K.html]PREVIEW 2[/url][/b]

[b][url=http://4kw.in/TV-Series/Arya-Stark-Game-of-Thrones-8K-Wallpaper.html]PREVIEW 3[/url][/b]

[b][url=http://4kw.in/TV-Series/Daenerys-Targaryen-Mother-Of-Dragons-4K.html]PREVIEW 4[/url][/b]

[/size] ]]>
Cosmid.17.08.24.Stacy.Martin.Stacey.And.Her.Rabbit.XXX.1080p.MP4-YAPG[N1C] http://glodls.to/torrent.php?id=2732906 http://glodls.to/torrent.php?id=2732906 Thu, 24 Aug 2017 04:09:21 +0100 Adult XXX Cosmid.17.08.24.Stacy.Martin.Stacey.And.Her.Rabbit.XXX.1080p.MP4-YAPG


[Format]: MPEG-4
[Duration]: 8mn 14s
[Resolution]: 1 920 x 1 080 pixels
[Display aspect ratio]: 16:9
[Frame rate mode]: Constant
[Frame rate]: 29.970 fps
[Original frame rate]: 25.000 fps


[color=green][b]#N1C -> To avoid fakes, ALWAYS check that the torrent was added by NO1CARES[/b][/color]




[color=green][b]Help us by donating with Bitcoin: 1Pgwp16gmLHmPzgjJLxZnMw7YeqiUekUoe[/b][/color]

[b]Screens...[/b]
[url]http://HotImage.uk/img-599e511ad743a.html[/url]
[url]http://HotImage.uk/img-599e511aeb71b.html[/url]
[url]http://HotImage.uk/img-599e511b04fe1.html[/url]
[url]http://HotImage.uk/img-599e511b10979.html[/url] ]]>
Killergram.17.08.23.Julia.De.Lucia.Swinging.Couples.XXX.720p.MP4-KTR http://glodls.to/torrent.php?id=2732903 http://glodls.to/torrent.php?id=2732903 Thu, 24 Aug 2017 04:08:16 +0100 Adult XXX
{Duration} : 24 min 18 s
{Format} : MPEG-4
{Resolution} : 1280 x 720 pixels
{Aspect Ratio} : 16:9
{Frame Rate} : 25.000 fps

[b]Thumbnails : -[/b]

[URL=https://www.sizzlingclicks.com/image/UjAQW][IMG]https://www.sizzlingclicks.com/images/2017/08/24/UjAQW.th.jpg[/IMG][/URL]
[b][URL]https://www.sizzlingclicks.com/image/UjAQW[/URL][/b]
[b][URL]https://www.sizzlingclicks.com/image/Ujn0j[/URL][/b]
[b][URL]https://www.sizzlingclicks.com/image/UjIO8[/URL][/b]
[b][URL]https://www.sizzlingclicks.com/image/UjXTB[/URL][/b] ]]>
Cosmid.17.08.24.Stacy.Martin.Stacey.And.Her.Rabbit.XXX.1080p.MP4-YAPG http://glodls.to/torrent.php?id=2732902 http://glodls.to/torrent.php?id=2732902 Thu, 24 Aug 2017 04:08:13 +0100 Adult XXX
{Duration} : 8 min 14 s
{Format} : MPEG-4
{Resolution} : 1920 x 1080 pixels
{Aspect Ratio} : 16:9
{Frame Rate} : 29.970 fps

[b]Thumbnails : -[/b]

[URL=https://www.sizzlingclicks.com/image/Uj3kX][IMG]https://www.sizzlingclicks.com/images/2017/08/24/Uj3kX.th.jpg[/IMG][/URL]
[b][URL]https://www.sizzlingclicks.com/image/Uj3kX[/URL][/b]
[b][URL]https://www.sizzlingclicks.com/image/Uj8DJ[/URL][/b]
[b][URL]https://www.sizzlingclicks.com/image/UjqAY[/URL][/b]
[b][URL]https://www.sizzlingclicks.com/image/Uj1HA[/URL][/b] ]]>
Alessandra Ambrosio Naked Sexy http://glodls.to/torrent.php?id=2732897 http://glodls.to/torrent.php?id=2732897 Thu, 24 Aug 2017 04:06:33 +0100 Adult XXX
[b][url=http://4kw.in/3753.html]PREVIEW 1[/url][/b]

[b][url=http://4kw.in/3754.html]PREVIEW 2[/url][/b]

[b][url=http://4kw.in/3755.html]PREVIEW 3[/url][/b]

[b][url=http://4kw.in/3756.html]PREVIEW 4[/url][/b][/size] ]]>
RKPrime.17.08.24.Dakota.Skye.Private.Rub.Down.XXX.1080p.MP4-KTR http://glodls.to/torrent.php?id=2732892 http://glodls.to/torrent.php?id=2732892 Thu, 24 Aug 2017 04:04:52 +0100 Adult XXX
{Duration} : 30 min 39 s
{Format} : MPEG-4
{Resolution} : 1920 x 1080 pixels
{Aspect Ratio} : 16:9
{Frame Rate} : 23.976 fps

[b]Thumbnails : -[/b]

[URL=https://www.sizzlingclicks.com/image/Uc2uR][IMG]https://www.sizzlingclicks.com/images/2017/08/24/Uc2uR.th.jpg[/IMG][/URL]
[b][URL]https://www.sizzlingclicks.com/image/Uc2uR[/URL][/b]
[b][URL]https://www.sizzlingclicks.com/image/Uc4TE[/URL][/b]
[b][URL]https://www.sizzlingclicks.com/image/Uc7me[/URL][/b]
[b][URL]https://www.sizzlingclicks.com/image/Uj0r5[/URL][/b] ]]>
Hot And Sexy Celebrities Pictures - Nudity Included Set-110 http://glodls.to/torrent.php?id=2732889 http://glodls.to/torrent.php?id=2732889 Thu, 24 Aug 2017 04:03:49 +0100 Adult XXX
[b][url=http://4kw.in/3747.html]PREVIEW 1[/url][/b]

[b][url=http://4kw.in/3748.html]PREVIEW 2[/url][/b]

[b][url=http://4kw.in/3749.html]PREVIEW 3[/url][/b]

[b][url=http://4kw.in/3750.html]PREVIEW 4[/url][/b][/size] ]]>
FirstTimeAuditions.17.08.24.Nina.Skye.Nipple.Spinning.XXX.1080p.MP4-KTR http://glodls.to/torrent.php?id=2732885 http://glodls.to/torrent.php?id=2732885 Thu, 24 Aug 2017 04:02:22 +0100 Adult XXX
{Duration} : 50 min 22 s
{Format} : MPEG-4
{Resolution} : 1920 x 1080 pixels
{Aspect Ratio} : 16:9
{Frame Rate} : 23.976 fps

[b]Thumbnails : -[/b]

[URL=https://www.sizzlingclicks.com/image/UcGA0][IMG]https://www.sizzlingclicks.com/images/2017/08/24/UcGA0.th.jpg[/IMG][/URL]
[b][URL]https://www.sizzlingclicks.com/image/UcGA0[/URL][/b]
[b][URL]https://www.sizzlingclicks.com/image/UcejK[/URL][/b]
[b][URL]https://www.sizzlingclicks.com/image/UcmQu[/URL][/b]
[b][URL]https://www.sizzlingclicks.com/image/UcsV2[/URL][/b] ]]>
RKPrime.17.08.24.Dakota.Skye.Private.Rub.Down.XXX.1080p.MP4-KTR[N1C] http://glodls.to/torrent.php?id=2732884 http://glodls.to/torrent.php?id=2732884 Thu, 24 Aug 2017 04:02:10 +0100 Adult XXX RKPrime.17.08.24.Dakota.Skye.Private.Rub.Down.XXX.1080p.MP4-KTR


[Format]: MPEG-4
[Duration]: 30mn 39s
[Resolution]: 1 920 x 1 080 pixels
[Display aspect ratio]: 16:9
[Frame rate mode]: Constant
[Frame rate]: 23.976 fps


[color=green][b]#N1C -> To avoid fakes, ALWAYS check that the torrent was added by NO1CARES[/b][/color]




[color=green][b]Help us by donating with Bitcoin: 1Pgwp16gmLHmPzgjJLxZnMw7YeqiUekUoe[/b][/color]

[b]Screens...[/b]
[url]http://HotImage.uk/img-599e4f67238e8.html[/url]
[url]http://HotImage.uk/img-599e4f67390f9.html[/url]
[url]http://HotImage.uk/img-599e4f6747cbf.html[/url]
[url]http://HotImage.uk/img-599e4f6754279.html[/url] ]]>
FirstTimeAuditions.17.08.24.Nina.Skye.Nipple.Spinning.XXX.1080p.MP4-KTR[N1C] http://glodls.to/torrent.php?id=2732883 http://glodls.to/torrent.php?id=2732883 Thu, 24 Aug 2017 04:01:21 +0100 Adult XXX FirstTimeAuditions.17.08.24.Nina.Skye.Nipple.Spinning.XXX.1080p.MP4-KTR


[Format]: MPEG-4
[Duration]: 50mn 22s
[Resolution]: 1 920 x 1 080 pixels
[Display aspect ratio]: 16:9
[Frame rate mode]: Constant
[Frame rate]: 23.976 fps


[color=green][b]#N1C -> To avoid fakes, ALWAYS check that the torrent was added by NO1CARES[/b][/color]




[color=green][b]Help us by donating with Bitcoin: 1Pgwp16gmLHmPzgjJLxZnMw7YeqiUekUoe[/b][/color]

[b]Screens...[/b]
[url]http://HotImage.uk/img-599e4f4a1d13b.html[/url]
[url]http://HotImage.uk/img-599e4f4a308df.html[/url]
[url]http://HotImage.uk/img-599e4f4a3ea45.html[/url]
[url]http://HotImage.uk/img-599e4f4a4a902.html[/url] ]]>
Hottest Boob Pictures Of Hot And Spicy Girls - Nudity Included Set-133 http://glodls.to/torrent.php?id=2732873 http://glodls.to/torrent.php?id=2732873 Thu, 24 Aug 2017 04:01:00 +0100 Adult XXX
[b][url=http://4kw.in/3739.html]PREVIEW 1[/url][/b]

[b][url=http://4kw.in/3740.html]PREVIEW 2[/url][/b]

[b][url=http://4kw.in/3741.html]PREVIEW 3[/url][/b]

[b][url=http://4kw.in/3742.html]PREVIEW 4[/url][/b][/size] ]]>
Snowfall S01E08 HDTV x264-FLEET http://glodls.to/torrent.php?id=2732847 http://glodls.to/torrent.php?id=2732847 Thu, 24 Aug 2017 04:00:35 +0100 TV http://www.tvrage.com/schedule.php?show_yesterday=1. ]]> Snowfall S01E08 720p HDTV x264-AVS http://glodls.to/torrent.php?id=2732846 http://glodls.to/torrent.php?id=2732846 Thu, 24 Aug 2017 04:00:34 +0100 TV http://www.tvrage.com/schedule.php?show_yesterday=1. ]]> Blood Drive S01E11 HDTV x264-FLEET http://glodls.to/torrent.php?id=2732845 http://glodls.to/torrent.php?id=2732845 Thu, 24 Aug 2017 04:00:32 +0100 TV http://www.tvrage.com/schedule.php?show_yesterday=1. ]]> Blood Drive S01E11 720p HDTV x264-FLEET http://glodls.to/torrent.php?id=2732844 http://glodls.to/torrent.php?id=2732844 Thu, 24 Aug 2017 04:00:31 +0100 TV http://www.tvrage.com/schedule.php?show_yesterday=1. ]]>